**** Bem vindo ao fórum nemiguelito ****
Caro visitante após registar no fórum queira ler as nossas regras
Alguma dúvida que tenha não hesite em perguntar à um Administrador e aguarde pacientemente por uma resposta.
Sinta-se em casa aqui os Downloads são ilimitados!
Seja bem vindo e participe no fórum para ser um Membro VIP
Cumprimentos [Administrador] Fundador****

DRAGONFORCE - In The Line Of Fire (2015) 720p AAC

Comparte
avatar
Fundador
Administador
Administador

Mensagens : 2222
Data de inscrição : 22/12/2014
Idade : 35

DRAGONFORCE - In The Line Of Fire (2015) 720p AAC

Mensaje por Fundador el Sáb 1 Ago - 20:03:30

DRAGONFORCE - In The Line Of Fire (2015) 720p AAC


Complete name : DRAGONFORCE - In The Line Of Fire (2015) 720p AAC
Format : MPEG-4
Format profile : Base Media
Codec ID : isom
File size : 3.50 GiB
Duration : 1h 33mn
Overall bit rate mode : Variable
Overall bit rate : 5 355 Kbps
Encoded date : UTC 2015-07-23 23:11:08
Tagged date : UTC 2015-07-23 23:11:17

Video
ID : 2
Format : AVC
Format/Info : Advanced Video Codec
Format settings, CABAC : No
Format settings, ReFrames : 1 frame
Muxing mode : Container profile=Baseline@4.1
Codec ID : avc1
Codec ID/Info : Advanced Video Coding
Duration : 1h 33mn
Bit rate : 5 156 Kbps
Width : 1 280 pixels
Height : 720 pixels
Display aspect ratio : 16:9
Frame rate mode : Constant
Frame rate : 29.970 fps
Original frame rate : 29.000 fps
Color space : YUV
Chroma subsampling : 4:2:0
Bit depth : 8 bits
Scan type : Progressive
Bits/(Pixel*Frame) : 0.187
Stream size : 3.37 GiB (96%)
Language : English

Audio
ID : 1
Format : AAC
Format/Info : Advanced Audio Codec
Format profile : LC
Codec ID : 40
Duration : 1h 33mn
Bit rate mode : Variable
Bit rate : 192 Kbps
Maximum bit rate : 298 Kbps
Channel(s) : 2 channels
Channel positions : Front: L R
Sampling rate : 48.0 KHz
Compression mode : Lossy
Stream size : 128 MiB (4%)
Language : English

Menu #1
00:00:00.000 : Chapter1
00:07:24.000 : Chapter2
00:14:30.000 : Chapter3
00:17:40.000 : Chapter4
00:24:48.000 : Chapter5
00:30:29.000 : Chapter6
00:33:20.000 : Chapter7
00:35:38.000 : Chapter8
00:39:51.000 : Chapter9
00:46:03.000 : Chapter10
00:48:09.000 : Chapter11
00:49:31.000 : Chapter12
00:55:11.000 : Chapter13
00:58:57.000 : Chapter14
01:00:47.000 : Chapter15
01:05:11.000 : Chapter16
01:08:40.000 : Chapter17
01:16:39.000 : Chapter18
01:19:34.000 : Chapter19
01:21:06.000 : Chapter20
01:23:33.000 : Chapter21

Menu #2
ID : 3
Codec ID : text
Duration : 1h 23mn
Encoded date : UTC 2015-07-23 23:11:17
Tagged date : UTC 2015-07-23 23:11:17
00:00:00.000 : Chapter1
00:07:24.000 : Chapter2
00:14:30.000 : Chapter3
00:17:40.000 : Chapter4
00:24:48.000 : Chapter5
00:30:29.000 : Chapter6
00:33:20.000 : Chapter7
00:35:38.000 : Chapter8
00:39:51.000 : Chapter9
00:46:03.000 : Chapter10
00:48:09.000 : Chapter11
00:49:31.000 : Chapter12
00:55:11.000 : Chapter13
00:58:57.000 : Chapter14
01:00:47.000 : Chapter15
01:05:11.000 : Chapter16
01:08:40.000 : Chapter17
01:16:39.000 : Chapter18
01:19:34.000 : Chapter19
01:21:06.000 : Chapter20
01:23:33.000 : Chapter21

01. Fury Of The Storm
02. Three Hammers
03. Black Winter Night
04. Tomorrow's Kings
05. Seasons
06. Symphony Of The Night
07. Cry Thunder
08. Ring Of Fire
09. Through The Fire And Flames
10. Valley Of The Damned



Single Link 3,58 Gb
Ou 1 Gb Links
pass:


_________________
AVISO:Respostas aos topicos com smills(bonecos) e citaçâo dos topicos da banimento sem aviso previo

    Fecha y hora actual: Mar 21 Nov - 20:18:36